Image of Pyaar Se From Kolkata 2019 ZEE5 Full Movie In 1080p WEB-DL

Pyaar Se From Kolkata (2019) Hindi 1080p WEB-DL x264 AAC – 2.6 GB

Pyaar Se From Kolkata 2019 ZEE5 Originals Hindi Movie Free Download Direct Links 1080p Full HD WEB-DL Quality Which Encoded In x264 MKV.

Image of Pyaar Se From Kolkata 2019 ZEE5 Full Movie In 1080p WEB-DL

Details Of This Movies and Web Series

 

Title: Pyaar Se From Kolkata 2019 ZEE5
Genre: Drama | Romance
Release Date: 2019
Language: Hindi
Quality: 1080p WEB-DL x264
Audio: AAC 2.0
Format: MKV
Size: 2.6-GB

IMDb | ZEE5

Storyline

Sanjoy, a lost yet talented art director in an ad agency in Calcutta, is sold a story by his bosses about how his muse, the angel atop Victoria Memorial, would come to life on a fateful day. Torsha, a young intern in the same office is put to task by posing as the angel and meeting him clandestinely. But will Sanjoy’s unerring belief in miracles turn the tables on the prank?

See Also: Kaksha Gyarvi By Zakir Khan (2018) 720p HDRip x264 AAC ESubs – 700 MB

===================================================================
General
Complete name : Pyaar Se From Kolkata 2019 Hindi ZEE5 Original 1080p WEB-DL x264 AAC.mkv
Format : Matroska
Format version : Version 4
File size : 2.57 GB
Duration : 37 min 22 s
Overall bit rate : 2 254 kb/s
===================================================================
Video
ID : 1
Format : AVC
Format/Info : Advanced Video Codec
Format profile : [email protected]
Format settings : CABAC / 4 Ref Frames
Format settings, CABAC : Yes
Format settings, Reference : 4 frames
Codec ID : V_MPEG4/ISO/AVC
Duration : 37 min 22 s
Bit rate : 2 200 kb/s
Width : 1 920 pixels
Height : 1 080 pixels
Display aspect ratio : 16:9
Frame rate mode : Constant
Frame rate : 25.000 FPS
Color space : YUV
Chroma subsampling : 4:2:0
Bit depth : 8 bits
Scan type : Progressive
Bits/(Pixel*Frame) : 0.042
Stream size : 576 MiB (96%)
Language : Hindi
Default : Yes
Forced : No
===================================================================
Audio
ID : 2
Format : AAC LC
Format/Info : Advanced Audio Codec Low Complexity
Codec ID : A_AAC-2
Duration : 37 min 22 s
Bit rate : 96.0 kb/s
Channel(s) : 2 channels
Channel layout : L R
Sampling rate : 48.0 kHz
Frame rate : 46.875 FPS (1024 SPF)
Compression mode : Lossy
Stream size : 25.9 MiB (4%)
Language : Hindi
Default : Yes
Forced : No
===================================================================

Images Of This Full Length Movie and Web Series Episodes

Screenshots/Images Of Pyaar Se From Kolkata (2019) Hindi 1080p WEB-DL x264 AAC Full ZEE5 Movie

Image of Pyaar Se From Kolkata 2019 ZEE5 Full Movie In 1080p WEB-DL
Image of Pyaar Se From Kolkata 2019 ZEE5 Full Movie In 1080p WEB-DL
Image of Pyaar Se From Kolkata 2019 ZEE5 Full Movie In 1080p WEB-DL
Image of Pyaar Se From Kolkata 2019 ZEE5 Full Movie In 1080p WEB-DL
Image of Pyaar Se From Kolkata 2019 ZEE5 Full Movie In 1080p WEB-DL
Image of Pyaar Se From Kolkata 2019 ZEE5 Full Movie In 1080p WEB-DL

Watch Full HD 720p, 1080p Trailer

Watch Pyaar Se From Kolkata (2019) ZEE5 Trailer

Free Download Pyaar Se From Kolkata (2019) Hindi 1080p WEB-DL x264 AAC From Below

Direct Download Links

Happy2Hub
If Links are Expired or Files are Removed, Then check again in 24 Hrs or Comment below to inform us and we will update them as soon as possible.