Daab Chingri (2019) Hindi 1080p ZEE5 WEB-DL x264 AAC - 1.2 GB

Daab Chingri (2019) Hindi 1080p ZEE5 WEB-DL x264 AAC – 1.2 GB

Daab Chingri (2019) Hindi 1080p ZEE5 WEB-DL x264 AAC - 1.2 GB

Details Of This Movies and Web Series

Title: Daab Chingri (2019) Hindi 1080p ZEE5 WEB-DL x264 AAC – 1.2 GB
Genre: Drama
Release Date: 2019
Language: Hindi
Quality: 1080p WEB-DL x264
Audio: AAC
Format: MKV
Size: 1.3-GB

IMDb | ZEE5

Storyline

Daab Chingri is a ZEE5 Bengali Original movie. The story revolves around an old age home which prepares and delivers home cooked food to meet their expenses. One day, when the owner of the old age home is diagnosed with cancer, a young girl comes forward to help these senior citizens to upgrade their business to an online food service and raise funds for the owner’s treatment.
Streaming Now On ZEE5

See Also: Ishq Aaj Kal Season 3 ZEE5 Hindi Web Series 720p HDRip x265 HEVC AAC – 900 MB

===================================================================
General
Complete name : Daab Chingri 2019 Hindi 1080p WEB-DL x264 AAC.mkv
Format : Matroska
Format version : Version 4
File size : 1.31 GiB
Duration : 1 h 22 min
Overall bit rate : 2 277 kb/s
===================================================================
Video
ID : 1
Format : AVC
Format/Info : Advanced Video Codec
Format profile : [email protected]
Format settings : CABAC / 4 Ref Frames
Format settings, CABAC : Yes
Format settings, Reference : 4 frames
Codec ID : V_MPEG4/ISO/AVC
Duration : 1 h 22 min
Bit rate : 2 200 kb/s
Width : 1 920 pixels
Height : 1 080 pixels
Display aspect ratio : 16:9
Frame rate mode : Constant
Frame rate : 25.000 FPS
Color space : YUV
Chroma subsampling : 4:2:0
Bit depth : 8 bits
Scan type : Progressive
Bits/(Pixel*Frame) : 0.042
Stream size : 1.25 GiB (96%)
Language : Hindi
Default : Yes
Forced : No
===================================================================
Audio
ID : 2
Format : AAC LC
Format/Info : Advanced Audio Codec Low Complexity
Codec ID : A_AAC-2
Duration : 1 h 22 min
Bit rate : 96.0 kb/s
Channel(s) : 2 channels
Channel layout : L R
Sampling rate : 48.0 kHz
Frame rate : 46.875 FPS (1024 SPF)
Compression mode : Lossy
Stream size : 57.0 MiB (4%)
Language : Hindi
Default : Yes
Forced : No
===================================================================

Images Of This Full Length Movie and Web Series Episodes

Screenshots/Images Of Daab Chingri (2019) Hindi 1080p ZEE5 WEB-DL x264 AAC Full Movie

Daab Chingri (2019) Hindi 1080p ZEE5 WEB-DL x264 AAC
Daab Chingri (2019) Hindi 1080p ZEE5 WEB-DL x264 AAC
Daab Chingri (2019) Hindi 1080p ZEE5 WEB-DL x264 AAC
Daab Chingri (2019) Hindi 1080p ZEE5 WEB-DL x264 AAC
Daab Chingri (2019) Hindi 1080p ZEE5 WEB-DL x264 AAC

Watch Full HD 720p, 1080p Trailer

Watch Daab Chingri (2019) Hindi 1080p ZEE5 Trailer

Free Download Daab Chingri (2019) Hindi 1080p ZEE5 WEB-DL x264 AAC From Below

Direct Download Links

Happy2Hub
If Links are Expired or Files are Removed, Then check again in 24 Hrs or Comment below to inform us and we will update them as soon as possible.